MODERN FAMILY etrg game of thrones bbc formula 1 complete season star trek discovery español Better Call Saul s04e08 the meg arrow español hindi THE GOOD DOCTOR Fahrenheit 11 9 ettv Better Call saul The Man In The High Castle The Big Bang Theory Ethd queen of the south ethd the purge 1080p YIFY wentworth ??????????????????????????????? The flash ant man and the wasp incredibles 2 ant man the ant man maniac etmovies Star Trek Discovery fgt LESBIAN ANAL SEX SLAVES american horror story Ant-Man and the Wasp Survivor SEAL Team 2018 ITA Young Sheldon NFL mayans The Big Bang Theory s12e01 Vikings ufc Avengers 2160p Shadow of the Tomb Raider big bang theory español office 2019 the good place mr robot en español Ncis mission impossible fallout dtone evo better call saul s04e09 venom fear the walking dead s04e15 The Big Bang Theory s12e03 WWE Greys Anatomy big bang theory solo six ddr the walking dead Avengers Infinity War 
Warning! Use a VPN When Downloading Torrents!
Your IP Address is 136.243.35.158. Location is Germany
Your Internet Provider is tracking your torrent activity! Hide your IP ADDRESS with a VPN!
We strongly recommend using NordVPN to anonymize your torrenting. 30 Day Money Back Guarantee!
Try it Now!
ETTV Recommended TV Shows
MacGyver.2016.S03E02.HDTV.x264-KILLERS[ettv] torrent
Hawaii.Five-0.2010.S09E02.HDTV.x264-KILLERS[ettv] torrent
Z.Nation.S05E01.WEB.x264-TBS[ettv] torrent
Van.Helsing.S03E01.WEB.x264-TBS[ettv] torrent

ETTV Recommended Xvid
Better Off Zed.2018.HDRip.XviD.AC3-EVO torrent
Playing.with.Dolls.Havoc.2018.BDRip.XviD.AC3-EVO torrent
A Childs Voice.2018.HDRip.XviD.AC3-EVO torrent
Dance!.2018.HDRip.XviD.AC3-EVO[EtMovies] torrent

ETTV Recommended HD
Bayou.Caviar.2018.1080p.WEB-DL.DD5.1.H264-CMRG[EtHD] torrent
Malevolent.2018.1080p.NF.WEB-DL.DD+5.1.H264-CMRG[EtHD] torrent
Imagination.Land.2018.1080p.WEB-DL.H264.AC3-EVO[EtHD] torrent
Ant-man.And.The.Wasp.2018.1080p.BluRay.x264.DTS-HD.MA.7.1-HDChina[EtHD] torrent

ETTV Recommended UHD
The.First.Purge.2018.UHD.2160p.BluRay.Remux.Hevc.HDR-DTOne torrent
2.Fast.2.Furious.2003.UHD.2160p.BluRay.Remux.Hevc.HDR-DTOne torrent
Skyscraper.2018.UHD.2160p.BluRay.Remux.Hevc.Atmos.7.1-DTOne torrent
Pawo.2016.UHD.2160p.BluRay.x265.HDR.DTS-HDMA.5.1-DTOne torrent

ETTV Recommended Cam
Hellfest 2018.HDCAM.XViD.AC3-ETRG torrent
A Simple Favor 2018 NEW HDTS.XViD.AC3-ETRG torrent
The Predator 2018 NEW HDCAM.XViD.AC3 ETRG torrent
THE NUN 2018 NEW HDCAM-24HD torrent

ETTV Recommended Foreign
Ant-Man and the Wasp (2018) 720p BluRay x264 Dual Audio [Hindi DD5.1 (RM) DTH - English DD2.0] - Esub ~ Ranvijay torrent
Venom (2018) 720p HD-TS Hindi Dubbed ~ Team ShareSpark torrent
Loveyatri PreDvd Hindi 720p x264 AAC - mkvCinemas torrent
Andhadhun 2018 PreDvd Hindi 1GB x264 AAC - mkvCinemas torrent

Social


Download Torrent "True Crime (1996) (1080p AMZN WEB-DL x265 HEVC 10bit EAC3 2.0 FreetheFish) ..."

IMDB Details
Description:

N/A

Genre:

N/A

Download Torrent (Magnet)
Download Torrent (File)
Seeds: 111
Leechers: 102
Completed: 712 
Last Checked: 01-10-2018 16:30:14


Loading...
Details
Title:True Crime (1996) (1080p AMZN WEB-DL x265 HEVC 10bit EAC3 2.0 FreetheFish) ...
Description:


Encode Screenshots (Click for full quality)




Media Information
General
Format                                   : Matroska
Format version                           : Version 4 / Version 2
File size                                : 2.40 GiB
Duration                                 : 1 h 31 min
Overall bit rate                         : 3 751 kb/s
Encoded date                             : UTC 2018-09-30 07:21:15
Writing application                      : mkvmerge v20.0.0 ('I Am The Sun') 64-bit
Writing library                          : libebml v1.3.5 + libmatroska v1.4.8

Video
ID                                       : 1
Format                                   : HEVC
Format/Info                              : High Efficiency Video Coding
Format profile                           : Main [email protected]@Main
Codec ID                                 : V_MPEGH/ISO/HEVC
Duration                                 : 1 h 31 min
Bit rate                                 : 3 525 kb/s
Width                                    : 1 920 pixels
Height                                   : 1 080 pixels
Display aspect ratio                     : 16:9
Frame rate mode                          : Constant
Frame rate                               : 23.976 (24000/1001) FPS
Color space                              : YUV
Chroma subsampling                       : 4:2:0
Bit depth                                : 10 bits
Bits/(Pixel*Frame)                       : 0.071
Stream size                              : 2.26 GiB (94%)
Writing library                          : x265 2.8+68-fa57fa584898:[Windows][MSVC 1915][64 bit] 10bit
Encoding settings                        : cpuid=1111039 / frame-threads=5 / numa-pools=32,0 / wpp / no-pmode / no-pme / no-psnr / no-ssim / log-level=2 / input-csp=1 / input-res=1920x1080 / interlace=0 / total-frames=132020 / level-idc=0 / high-tier=1 / uhd-bd=0 / ref=5 / no-allow-non-conformance / no-repeat-headers / annexb / no-aud / no-hrd / info / hash=0 / no-temporal-layers / open-gop / min-keyint=23 / keyint=250 / gop-lookahead=0 / bframes=8 / b-adapt=2 / b-pyramid / bframe-bias=0 / rc-lookahead=90 / lookahead-slices=0 / scenecut=40 / radl=0 / no-intra-refresh / ctu=64 / min-cu-size=8 / no-rect / no-amp / max-tu-size=32 / tu-inter-depth=1 / tu-intra-depth=1 / limit-tu=0 / rdoq-level=2 / dynamic-rd=0.00 / no-ssim-rd / signhide / no-tskip / nr-intra=0 / nr-inter=0 / no-constrained-intra / no-strong-intra-smoothing / max-merge=3 / limit-refs=3 / limit-modes / me=3 / subme=7 / merange=57 / temporal-mvp / weightp / weightb / no-analyze-src-pics / deblock=-3:-3 / no-sao / no-sao-non-deblock / rd=6 / no-early-skip / rskip / no-fast-intra / no-tskip-fast / no-cu-lossless / b-intra / no-splitrd-skip / rdpenalty=0 / psy-rd=1.50 / psy-rdoq=3.00 / no-rd-refine / no-lossless / cbqpoffs=0 / crqpoffs=0 / rc=crf / crf=20.0 / qcomp=0.60 / qpstep=4 / stats-write=0 / stats-read=0 / ipratio=1.40 / pbratio=1.30 / aq-mode=3 / aq-strength=0.80 / cutree / zone-count=0 / no-strict-cbr / qg-size=32 / no-rc-grain / qpmax=69 / qpmin=0 / no-const-vbv / sar=0 / overscan=0 / videoformat=5 / range=0 / colorprim=2 / transfer=2 / colormatrix=2 / chromaloc=0 / display-window=0 / max-cll=0,0 / min-luma=0 / max-luma=1023 / log2-max-poc-lsb=8 / vui-timing-info / vui-hrd-info / slices=1 / no-opt-qp-pps / no-opt-ref-list-length-pps / no-multi-pass-opt-rps / scenecut-bias=0.05 / no-opt-cu-delta-qp / aq-motion / no-hdr / no-hdr-opt / no-dhdr10-opt / no-idr-recovery-sei / analysis-reuse-level=5 / scale-factor=0 / refine-intra=0 / refine-inter=0 / refine-mv=0 / no-limit-sao / ctu-info=0 / no-lowpass-dct / refine-mv-type=0 / copy-pic=1 / max-ausize-factor=1.0 / no-dynamic-refine / no-single-sei
Default                                  : Yes
Forced                                   : No

Audio
ID                                       : 2
Format                                   : E-AC-3
Format/Info                              : Enhanced Audio Coding 3
Format settings, Endianness              : Big
Codec ID                                 : A_EAC3
Duration                                 : 1 h 31 min
Bit rate mode                            : Constant
Bit rate                                 : 224 kb/s
Channel(s)                               : 2 channels
Channel positions                        : Front: L R
Sampling rate                            : 48.0 kHz
Frame rate                               : 187.500 FPS (256 spf)
Compression mode                         : Lossy
Stream size                              : 147 MiB (6%)
Language                                 : English
Default                                  : No
Forced                                   : No

Subtitle #1
ID                                       : 3
Format                                   : UTF-8
Codec ID                                 : S_TEXT/UTF8
Codec ID/Info                            : UTF-8 Plain Text
Duration                                 : 1 h 28 min
Bit rate                                 : 38 b/s
Count of elements                        : 924
Stream size                              : 24.9 KiB (0%)
Language                                 : English
Default                                  : No
Forced                                   : No

Subtitle #2
ID                                       : 4
Format                                   : UTF-8
Codec ID                                 : S_TEXT/UTF8
Codec ID/Info                            : UTF-8 Plain Text
Duration                                 : 1 h 30 min
Bit rate                                 : 43 b/s
Count of elements                        : 1092
Stream size                              : 28.8 KiB (0%)
Language                                 : English
Default                                  : No
Forced                                   : No

Source Information
Release : True.Crime.1995.1080p.AMZN.WEB-DL.DDP2.0.x264-ABM.mkv (8.62 GB)



Note from QxR:
Whilst we are happy for our releases to be re-posted on a platform we aren't on, please do so in an 'as-is' format. We ask that you do not create a new torrent, include all descriptions you see above including the QxR logo, tags, notes and screenshots. If you'd like to become a permanent poster on a website we don't post to, feel free to get in contact with a QxR member.
Category:Movies > HEVC/x265
Lang:English  English
Total Size:2.40 GB
Info Hash:18bacfcca4a8e1c73d22f0bdac70b0328e881470
Added By:QxR
Date Added:01-10-2018 16:30:11

Files

File List: 
 File Size
True Crime (1996) (1080p AMZN WEB-DL x265 FreetheFish).mkv2.40 GB



Loading...
Comments

There are currently no comments. Be the first one to write something !

Disclaimer: None of the files shown here are actually hosted or transmitted by this server. The links are provided solely by this site's users. The site moderation is also a service provided by the site's users. The administrator of this site (ettv.tv) cannot be held responsible for what its users post, or any other actions of its users. You may not use this site to distribute or download any material when you do not have the legal rights to do so. It is your own responsibility to adhere to these terms.